True Love Durand Jones Lyrics

intellectual appeal. Film cast/crew. Used second hand out of print vintage old (pre-1970) piano songbooks song books for sale in Australian second hand music shop. Morning in America 2. Whelans, Dublin 13/8/19. True Love - Durand Jones & The Indications | Shazam. Resource wars the new landscape of global conflict Klare, Michael T. Disclaimer All correct lyrics are copyrighted, amIright. Paroles Durand Jones & the Indications - Retrouvez les paroles de chansons de Durand Jones & the Indications. Have been a member of NetGalley since October 29, 2014. Photos and Videos. Durand Jones and The Indications lyrics - 25 song lyrics, including Cruisin to the Park, Circles, Long Way Home, True Love, Too Many Tears, Morning in America, How Can I Be Sure, Don’t You Know, Don’t You Know (feat. About my library Historical and Contemporary Romance. Oh the crazy and fun times she has when she falls asleep. G Am7 I get so tired of people wonding what im doing G Am7 but I’m waiting for you G Am7 and girl I waste my time and spend it on my wishes A#m7 Am7. But one day the organist. 45cat - discographies, discussions, discoveries. [C Em Dm F Am G D A] Chords for ~IS IT ANY WONDER~ DURAND JONES & THE INDICATIONS with capo transposer, play along with guitar, piano, ukulele & mandolin. PERFORMER "Durand Jones & The Indications" ISRC USJ5G1917710 INDEX 01 00:00:00 FILE "11. At only 21 years old, Baumgartner is like a dream come true for Gypsy Jazz fanatics (and there are plenty): he's one of the new stars who carries a royal bloodline. Enjoy the videos and music you love, upload original content, and share it all with friends, family, and the world on YouTube. But there is a last-act plot turn that spoiled a bit of the magic for not just me, but my daughter. Search and download free mp3 music through the best mp3 music search engine. Resource wars the new landscape of global conflict Klare, Michael T. True love, I knew I had it True love, was so hard to find (could've had it all) True love, if I could get it back, I'd never let it go this time (I'd never let it go) True love is an inspiration, ah True love, it was mine, all mine True love, if I could get it back, yeah If only I could get it back, I'd— True love, I'd never let it go True. Universal Love 4. If the results do not contain the songs you were looking for please try to find the song by the name of the artist or by the name of. By Paste Magazine | August 29, 2017. ” (Hammerstein penned the iconic lyrics from his home and farm in Doylestown. The Weight is the centrepiece of the album, both musically and lyrically. Vincent, Arctic Monkeys, Haim, and Father John Misty. Includes MIDI and PDF downloads. With an Introduction, Textual Notes, a List of Editions, an Appendix of Translations, and a Portrait. Easily share your publications and get them in front of Issuu's. Choose one of the browsed Dear Brother My Love Is In Your Hands lyrics, get the lyrics and watch the video. Video by Nirza Vids. Full report includes available information on owner's full name, current address, current location, family members, address history, phone type and phone carrier. The Western States Cowboy Poetry Collection, housed at Utah State University, grew out of a concerted effort by western state folklorists in the early 1980s to collect, document, and present cowboy poetry. Olsen, Will Scheffer. Whelans, Dublin 13/8/19. I can see, as I recall my life, I've waited all my life To give you all my love. Fooled Around and Fell In Love blue rose 031faa6d-119a-4d44-9db7-50f76be224c4 Amar y Vivir Alberto Ángel "El Cuervo" 03212ac2-4456-4fb7-ac0d-f8c3437134cd Rada Records S. Bernice's family was the true love of her life and she always had time, energy and love for all of them. Photos and Videos. But to give to you and to give to. Love explains. If the results do not contain the songs you were looking for please try to find the song by the name of the artist or by the name of. All my sighs will disappear at last, Now that you're here at last, My heart belongs to you. kar Whitney Houston - Greatest Love Af All. Court of Love 5. American Love Call 2019 Durand Jones & the Indications - Jam in the Van (Live Session) - Single 2017 You and Me / Put a Smile on Your Face - Single 2018. George Acosta feat. Love Changes. Browse all Funk / Jazz / Blues / Soul / Gospel in stock on vinyl & CD at Norman Records UK. lyrics and guitar playing in relation to the beat," G. Shrek is a 2001 American computer-animated adventure fantasy comedy film produced by DreamWorks Pictures, loosely based on William Steig's 1990 fairy tale picture book of the same name and directed by Andrew Adamson and Vicky Jenson in their directorial debut. It was released by RCA Records on June 17, 1969. Vincent, Arctic Monkeys, Haim, and Father John Misty. University of New Orleans. John Paul Jones, Soundtrack: The Song Remains the Same. Read "Estella's Diary: Bachelors and Beaus, Alas, Will True Love Elude Me? (Volume III)" by Gwen Pierce-Jones available from Rakuten Kobo. What True Love Really Is True Love lyrics ~ Dove Cameron. On the surface, it's another love song to sing to your sweetheart, but I've always felt like it was about searching for happiness and purpose in life. Dec 20, 2018- Explore ineketangeman's board "love", followed by 119 people on Pinterest. Durand Jones & The Indications - True Love Paste Studios (New York, New York), 08/28/2017. Even with an aesthetic steeped in the golden, strings-infused dreaminess of early '70s soul, the Indications' sophomore LP, American Love Call, is planted firmly in the present, with the. This belated follow up is, if anything, even better, with the group's core. Ibaraki, Japan; Parnaiba, Brazil; Dessie, Ethiopia; Leiden, Netherlands. True Love lyrics ~ Jordan Fisher. In addition to Patti Page’s #1 version, All My Love was also popular in 1950 in versions by Guy Lombardo, Percy Faith, Bing Crosby, and Dennis Day. Voice, Guitar and Piano Sheet Music Country Style 5 To 9 by Dolly Parton 8th of November by John Rich and Kenny Alphin performed by Big & Rich 99. Shelby and the Shelby family of Concordia, Miss. Lyrics Born has gone about the creation of his latest effort, As U Were, in a less-than-conventional manner. Waitin' on my true love / Waitin' on my true love / Waitin' on my true love / Waitin' on my true love / And I get so tired of people Discovered 3303 times using Shazam, the music discovery app. Winner Spawnbreezie MP3 & Lyrics Download. org in the CD booklet. The crowd was instantly drawn in by his unreleased song "Waiting on My True Love" as even the most stoic and crossed-armed onlooker sang along with the hook. It's way of setting a trap to catch Sam. John Paul Jones was born on January 3, 1946 in Sidcup, Kent, England as John Baldwin. First true love, Kolohe Kai, Lyrics. Film cast/crew. Photos and Videos. Choose one of the browsed Dear Brother My Love Is In Your Hands lyrics, get the lyrics and watch the video. We're less than three full months into 2019 and I've already found what is likely to be one of the top 10 albums of the year - American Love Call by Durand Jones and the Indications. Arctic Moon – True Romance (Original Mix) 492. I sent him a beat and a riff for the song Blaze Away and he came up with some lyrics, then lost them. Elvis Duran and the Morning Show We're your morning show family! Love. , the whole room sang every word to "Is It Any Wonder," which was completely surreal. Darbus's acting skills and timing should be topnotch; her singing voice is secondary as she has no solos. Listen to samples, read verified reviews, and get free proposals. PERFORMER "Durand Jones & The Indications" ISRC USJ5G1917710 INDEX 01 00:00:00 FILE "11. True Love Lyrics: Waitin' on my true love / Waitin' on my true love / Waitin' on my true love / Waitin' on my true love / And I get so tired of people wonderin' what I'm doin' / But I'm waitin' for. Mss011 Bob Kennedy Printed Music Collection 4 1954. Fred and Bing reprised their song from the movie "Holiday Inn" and added such tunes as "Pick Yourself Up" and "Top Billing. Melody (an Ode to Hip Hop) 3. This road is gone take us back now You look so fine, I don't know how to act now They say my child, don't stroll off easy Cause when it's t. Shelby was a student at the University of Mississippi in 1858. Meine Liebe bist du (True Love) Nummer Eins in meinem Herzen Peggy Peggy Siehst du die Sterne Song for Julia Striptease Susi Suchst Du die Liebe Träumen von der Südsee Twistin mit Monika Wann du wiederkommst Wann kommst du wieder Warum siehst du mich heute so verliebt an Wenn es Liebe wär Winke Winke A Dirndl aus Ottakring, a Bua aus Hernals. Enjoy the videos and music you love, upload original content, and share it all with friends, family, and the world on YouTube. But to give to you and to give to. This road is gone take us back now You look so fine, I don't know how to act now They say my child, don't stroll off easy Cause when it's t. wnq-typography: What’s Meant For You Will Always Be Yours More. Eleonora Fonseca Pimentel was a poet, a political writer, a journalist, and a politician. First, Robbie Robertson on The Weight: Robbie Robertson: I just wrote it. Lyrics to "True Love" by DURAND JONES & THE INDICATIONS: [Chorus:] / Waitin' on my true love / Waitin' on my true love / Waitin' on my true love / Waitin' on my true love / And I get so tired of people wonderin' what I'm doin' / But I'm waitin' for you / And girl, I waste my time and spend it on my wishes / Just wis. The Western States Cowboy Poetry Collection, housed at Utah State University, grew out of a concerted effort by western state folklorists in the early 1980s to collect, document, and present cowboy poetry. " The special lyrics written by Barnes and Moore for the album helped make the album sheer delight. Forget the Regret by Nhojj, released 31 October 2012 VERSE 1 I recall a time before now But not so long ago I screwed up I shouldn't have done that Made me feel so low So I carried bags of guilt around me Then stopped at the cross roads The devil came and smiled at me Scared me something so CHORUS 1 Made me stop. Nov 3, 2018- Explore jmorrell1292's board "music i like" on Pinterest. Durand Jones & The Indications - True Love Paste Studios (New York, New York), 08/28/2017. From Elvis in Memphis is the tenth studio album by American rock and roll singer Elvis Presley. booker t & the mgs - melting pot (part 2) (3:59). Photos and Videos. In walks Matthew Clairmont, vampire and obvious love interest, who is also a scientist studying blood stuffs (obviously). The Church lyrics of the 12th and 13th c. lyrics and guitar playing in relation to the beat," G. This banner text can have markup. What I Know About You 9. There's a lot of period-appropriate referencing of romance, but the approach is more worldly-wise than starry-eyed. Why I Love It: Pretty much every film in the rest of this list is a true classic, so I’ll stop saying it, hehe. Elvis Duran and the Morning Show We're your morning show family! Love. B 20 CH Whiskeytown Remy Martin Xo JH. Zullo & Robyn Zullo & Lisa Durand. Loading Trure Love Free download Trure Love mp3 for free Durand Jones & The Indications - True Love - 8/28/2017 - Paste Studios, New York, NY. Available on mp3 and wav at the world’s largest store for DJs. Classic, old-school 70s-style vintage soul with horns and orchestral backing by the Louisiana-born vocalist with a new record made in Brooklyn that transcends its time. Love poems, Blues poems - from The Harlem Renaissance: Langston Hughes verses composed between 1924 and 1930:. See more ideas about Love quotes, Me quotes and Love poems for him. Durand Jones & Indications Don't You Know True Love 7" BLUE VINYL Record! non lp. Browse for Dear Brother My Love Is In Your Hands song lyrics by entered search phrase. For singers and pianists interested in the art song repertoire, this is a list of those compositions for voice and piano, from the 1900-1999 era, which are still available, for purchase or otherwise, in score form. Durand Jones & The Indications prove with American Love Call that the sounds of 1960s and '70s soul are as beautiful today as they were first time around. • Durand Jones & The Indications - Cruisin' to the Park (Official Video) • Circles • Durand Jones & The Indications - True Love - 8/28/2017 - Paste Studios, New York, NY • Durand Jones & The Indications - Don't You Know (Official Video) • Durand Jones & The Indications - How Can I Be Sure - 3/14/2019 - Riverview Bungalow - Austin, TX. Songtexte von Durand Jones & the Indications mit deutschen Übersetzungen, Lyrics, Liedtexte und Musik-Videos kostenlos auf Songtexte. Our story spins through the world famous tales of Peter Pan and Cinderella. Tried and True by Daud Aur Yahudy, released 01 June 2019 Transformed going through trials losing things falling off on You Your shedding Transition to another level in your life everything Can’t go with you; even people you once Knew Your burning Your not consumed don’t Panic Yahuah he chose You To go through the furnace, Purified like going from winter to spring in your life The son is. Passa al contenuto principale. Little did she know how much her life would change because of that. Chords for Pepe Marquez - I want a love I can see. Durand Jones & The Indications - True Love Paste Studios (New York, New York), 08/28/2017. wav" WAVE TRACK 11 AUDIO TITLE "How Can I Be Sure" PERFORMER "Durand Jones & The Indications" ISRC USJ5G1917711 INDEX 01 00:00:00 FILE "12. The relationship between Motown and politics runs deep. Got so as people would recognize that whistle and know when Casey was driving past. Lyrics for top songs by Patti Murin. ” Price and Vilray first met in 2003 as students at the New England Conservatory of Music. There is nothing wrong with you because you care about this person and in the end it comes down to compatibility and personal preference. La Vie en rose was the song that made Piaf internationally famous, with its lyrics expressing the joy of finding true love and appealing to those who had survived the difficult period of World War II. Kyle Meredith With is an interview series in which WFPK's Kyle Meredith speaks to a wide breadth of musicians. Joseph Gordon-Levitt and Seth Rogen star as best friends whose lives are changed by a cancer. "Subway Face". This belated follow up is, if anything, even better, with the group's core. Cinderella defeats the odds by jumping through obstacles to find her true love a new twist on your average love story. Durand Jones & The Indications. Co-guitarists Stephane Wrembel and Thor Jensen join Nick Driscoll on saxophone/clarinet, and the rhythm section of bassist Ari Folman-Cohen and drummer Nick Anderson. Songtexte von Durand Jones & the Indications mit deutschen Übersetzungen, Lyrics, Liedtexte und Musik-Videos kostenlos auf Songtexte. For you and I have a guardian angel on high with nothing to do. Françoise Pascal, Marie-Catherine Desjardins, Antoinette Deshoulières, and Catherine Durand Challenges to Traditional Authority Giovan Francesco Straparola: The Pleasant Nights Gunpowder Percy. All these accouterments make California Nights very much a record of its time, and if it didn't make many waves at the time -- the appealingly hazy title track made it to 16 but the album stalled at 169 -- it stands as something of an underrated period piece, anchored by the gorgeous, cinematic productions of Crewe and enlivened by the savvier. Created by Mark V. Love Changes. Shout Outs in music, song titles, lyrics, and band names. Durand Jones & the Indications signe un grand disque de la soul ! Mené par Jones et Frazer au chant, entourés de Blake Rhein, Kyle Houpt et Steve Okonski, The Indications ont sorti leur premier album du même nom chez le label très renommé, Colemine Records. Universal Love 4. CLASSIC BLUES ARTWORK FROM THE 1920 S - 2019 Calendar Blues Images 219 CD $21. Waitin' on my true love Paroles2Chansons dispose d’un accord de licence de paroles de chansons avec la Société des Editeurs et Auteurs de Musique (SEAM) Paroles de chansons de Durand Jones & the Indications. We have about 3 matching results to play and download. So until next time my love jones stay loving!. Little did she know how much her life would change because of that. "I love it," she. American Love Call (2019) Morning In America lyrics; Don\'t You Know lyrics; Circles lyrics; Court Of Love lyrics; Long Way Home lyrics; Too Many Tears lyrics; Walk Away lyrics; What I Know About You lyrics; Listen To Your Heart lyrics; Sea Gets Hotter lyrics; How Can I Be Sure lyrics; True Love lyrics; Durand Jones & The Indications (2016. [Chords] A Bm7 Cm7 D E e|-5---7---9---x---x-| B|-7---9-- 11--5---7-| G|-7---7---9---7---9-| D|-6---7---9---7---9-| A|-5---7---9---7---9-| E|-5---7---9---5---7-| [Intro] e. “I’ve written for my true love songs forty-three/ The simple rhythms make room for Snyder’s complex lyrics, less mysterious than his visual art, but layered nevertheless, and delivered. Enjoy the videos and music you love, upload original content, and share it all with friends, family, and the world on YouTube. T Top Hits Lyrics. 2 Younger than Springtime from “South Pacific,” Rodgers and Hammerstein, 1949. Watch the video for How Can I Be Sure from Durand Jones & The Indications's American Love Call for free, and see the artwork, lyrics and similar artists. _ I give to you and you give to me True love True love. What True Love Really Is True Love lyrics ~ Dove Cameron. See more ideas about Love quotes, Me quotes and Love poems for him. Durand Jones & The Indications Durand Jones & The Indications Colemine Records Durand Jones' first release is such a pleasure to listen to, and has instantly become a staple in my musical catalogue. Meine Liebe bist du (True Love) Nummer Eins in meinem Herzen Peggy Peggy Siehst du die Sterne Song for Julia Striptease Susi Suchst Du die Liebe Träumen von der Südsee Twistin mit Monika Wann du wiederkommst Wann kommst du wieder Warum siehst du mich heute so verliebt an Wenn es Liebe wär Winke Winke A Dirndl aus Ottakring, a Bua aus Hernals. Inhabiting this box is a mad man who calls himself the Doctor, his son, the Savior of the Wizarding World aka Harry Potter, an immortal man from the 51st century who affects a Captain in front of his name, Jack Harkness, and a pink and yellow once-human who is simply Rose Tyler. Lyrics to "Court Of Love" by DURAND JONES & THE INDICATIONS: [Chorus:] / Court of love / Court of love / Court of love / Court of love / In the court of love / Stands a woman accused / Heartbreak in the first degree / False love and misuse / The long walk down the aisle / You're judged but all the while / Your cold. It was recorded at American Sound Studio in Memphis in January and February 1969 under the direction of producer Chips Moman and backed by its house band, informally known as "The Memphis Boys". Browse for Dear Brother My Love Is In Your Hands song lyrics by entered search phrase. Postal Service issues an Elvis Presley stamp. Video by Nirza Vids. After all, the final track is called "There's No True Love. Elvis Duran and the Morning Show. Elvis Duran and the Morning Show We're your morning show family! Love. 07-13-2015. If the results do not contain the songs you were looking for please try to find the song by the name of the artist or by the name of the song. Durand, Hampton. 1-16 of 74 results for "durand jones and the indications" Exclude Explicit Lyrics; Music Format. American Love Call by Durand Jones & The Indications American Love Song (Vinyl) Love Your Enemies RYAN BINGHAM - American Love Song (Black Vinyl) - vinyl. With her seventh album, the country star cheerfully exposes her sometimes-chaotic inner life, wearing her heart on her sleeve as she reaches for another shot of tequila. Find images and videos about love, girls and quotes on We Heart It - the app to get lost in what you love. Welcome to my blog -- Jones Family Matters. 545 limited edition products ranging from live LPs, boxsets, albums never-before. For you and I have a guardian angel on high with nothing to do. I can see, as I recall my life, I've waited all my life To give you all my love. Enter a 10-digit Phone Number. There's just one song ("Famous Blue Raincoat") from Songs of Love and Hate, and no songs at all from Death of a Ladies Man. My Mantra 2. 7 Joseph Gordon-Levitt, Seth Rogen, Anna Kendrick, Bryce Dallas Howard, Anjelica Huston Jonathan Levine Comedy, Drama Inspired by a true story, 50/50 is an original story about friendship, love, survival and finding humor in unlikely places. This belated follow up is, if anything, even better, with the group's core. "True Love" One of the first songs we wrote for the record. Mss011 Bob Kennedy Printed Music Collection 4 1954. The pain in her heart was becoming far too unbearable. Through research, the most simple way to do it is to get the Video Capture Cord and included software. Cohen's 1988-2002 period is arguably overrepresented, with about half of the package's tunes dating from that era. Durand Jones & The Indications - True Love Paste Studios (New York, New York), 08/28/2017. Nov 30, 2016- Explore durandshirley's board "Adult colouring books / pages", followed by 116 people on Pinterest. Joanna – Please Don’t Go (Chris Reece Remix) 493. An epic marriage of Ancient, Elizabethan, and Post-Modern stylings, the Broadway premiere of Head over Heels at the Hudson Theatre, produced by Gwyneth Paltrow and Donovan Leitch, is cause for. Letters and essays related to or written by Evan J. By Paste Magazine | August 29, 2017. wav" WAVE TRACK 12 AUDIO TITLE "True Love" PERFORMER "Durand Jones & The Indications. Richard Durand - Airwell 05. Court of Love 5. Video games. This road is gone take us back now You look so fine, I don't know how to act now They say my child, don't stroll off easy Cause when it's t. I, I always thought that I knew I'd always have the right to Be living in the kingdom of the good and true And so on, but now I think I was wrong. Artists/Groups with their …. Justin Timberlake lyrics with translations: Mirrors, Say Something, Can't Stop The Feeling!, Sexy Back, Five Hundred Miles, Cry Me A River, True Colors. Review: Durand Jones & The Indications earned lavish praise for their eponymous 2016 debut album, with critics comparing it favourably to conscious soul sets of the 1970s from the likes of Curtis Mayfield and Marvin Gaye. She was the editor, and virtually the only writer of the Monitore Napoletano (Neapolitan Monitor), the journal in which she recorded the events and debates that took place in the short-lived Neapolitan Jacobin Republic of 1799. Voice, Guitar and Piano Sheet Music. Music Library Special Collections Louisville Music Publications of the 19th Century Music Library Special Collections : Louisville Music Publications of the 19th Century. Watch the video for How Can I Be Sure from Durand Jones & The Indications's American Love Call for free, and see the artwork, lyrics and similar artists. wav" WAVE TRACK 11 AUDIO TITLE "How Can I Be Sure" PERFORMER "Durand Jones & The Indications" ISRC USJ5G1917711 INDEX 01 00:00:00 FILE "12. Choose one of the browsed Dear Brother My Love Is In Your Hands lyrics, get the lyrics and watch the video. It was released by RCA Records on June 17, 1969. MusicBiatch is a mp3 music search engine designed for locating music files. Too Many Tears - Durand Jones & The Indications; Durand Jones & The Indications - True Love - 8/28/2017 - Paste Studios, New York, NY; Durand Jones & The Indications - Is It Any Wonder? - 8/28/2017 - Paste Studios, New York, NY; Durand Jones & The Indications - How Can I Be Sure - 3/14/2019 - Riverview Bungalow - Austin, TX; Durand Jones & The. True love, I knew I had it True love, was so hard to find (could've had it all) True love, if I could get it back, I'd never let it go this time (I'd never let it go) True love is an inspiration, ah True love, it was mine, all mine True love, if I could get it back, yeah If only I could get it back, I'd— True love, I'd never let it go True. wav" WAVE TRACK 12 AUDIO TITLE "True Love" PERFORMER "Durand Jones & The Indications. My Mantra 2. People we're even singing along to "True Love. Lyrics for top songs by Patti Murin. 1980s Song Lyrics. There’s a lot of period-appropriate referencing of romance, but the approach is more worldly-wise than starry-eyed. [Chords] A Bm7 Cm7 D E e|-5---7---9---x---x-| B|-7---9-- 11--5---7-| G|-7---7---9---7---9-| D|-6---7---9---7---9-| A|-5---7---9---7---9-| E|-5---7---9---5---7-| [Intro] e. Get this from a library! American love call. Darbus's acting skills and timing should be topnotch; her singing voice is secondary as she has no solos. It was the African-American, urban experience, sung in a gospel style, with secular lyrics. Power Papi. Thomas Stanley: His Original Lyrics, Complete, In Their Collated Readings of 1647, 1651, 1657. The skies may fall, my love. He does not hang our debt to Him over our heads but instead continues to light our way, even for those who have not chosen to follow Him. Elvis Duran and the Morning Show We're your morning show family! Love. American Love Call is an outstanding example of how craft and passion can walk hand in hand, and puts Durand Jones & the Indications near the top of the heap in the retro-soul sweepstakes. By GCH CH Glacier's Norrsken Over Sverige & GCH CH Glacier's You Can't Take It With You DS. The following is a complete list of the pieces contained in the collection. Elvis Duran and the Morning Show We're your morning show family! Love. Durand Jones ' music doesn't sound new, it sounds like a lost soul record from the 60s that you may have found while crate digging. tomorrowsvelvetdreamz Let True Love Begin Jogib (Jamaica), 1971. found 17,208 songs, now display 1 - 500, click on song's name to view lyrics. Chords: A, D, Bm, Em. Jasmine Lee) - IamOMNI; Tell Me What You Want - Caught A Ghost Easy Soundtrack Season 3 Songs - Tracklist - Listen to the playlist of all of the songs played in the tv show, who sings them, including end credits and scene descriptions. TRUE LOVES Famous Last Words. DURAND JONES & THE INDICATIONS LP “Easily one of the best deep soul albums we’ve heard in years. Walk Away 8. GENERAL ADMISSION TICKETS AND VIP MEET & GREET PACKAGES AVAILABLE 10/25 VIP MEET & GREET PACKAGES INCLUDE - One (1) Event Ticket - Meet & Greet and Photo with Durand Jones & The Indications. Jones and Bartlett Publishers Sudbury, Mass. That is a true love story. Vincent, Arctic Monkeys, Haim, and Father John Misty. Even with an aesthetic steeped in the golden, strings-infused dreaminess of early '70s soul, the Indications' sophomore LP, American Love Call, is planted firmly in the present, with the. Holy Hive have taken this tried and true subject and infused it with their signature soul-folk sound to create this gem of a b-side. See more ideas about Love quotes, Me quotes and Love poems for him. Not-for-profit label Rain & Shine likes to do reissues differently, offering all profits - rather than a percentage - to the families of the artists whose records they release. Thanks for watching sorry if i made mistakes and i don't own the song, or Durand Jones & The Indications - True Love Recorded. Enter a 10-digit Phone Number. by William Lewis Jones To Which is Added the True Relation of My Birth, Breeding and Life. Hungover (feat. Meredith digs deep into the artist's work to find out how the music is made and where their journey is going, from legendary artists like Robert Plant, Paul McCartney, U2, and Bryan Ferry, to the newer class of The National, St. Sophomore Album, American Love Call, out now. Is It Any Wonder? Lyrics: This road is gon' take us back now / You look so fine, I don't know how to act now / They say "My child, don't stroll off easy / 'Cause when it's time, you gone hear what. That is the torch that lights the way to our best future. Shop for Vinyl, CDs and more from Durand Jones at the Discogs Marketplace. Words and Lyrics from your favorite 80s songs and albums. Seth Anderson - True Love Donna Durand Joal Kamps Joe Vickers Drew Jones Sykamore Liz Stevens Sean Hamilton Justine Vandergrift. First, Robbie Robertson on The Weight: Robbie Robertson: I just wrote it. But it's his earnest romantic sentiments that hold Our Love's disparate ideas together. “I love it,” she. T Top Hits Lyrics at Lyrics On Demand. GENERAL ADMISSION TICKETS AND VIP MEET & GREET PACKAGES AVAILABLE 10/25 VIP MEET & GREET PACKAGES INCLUDE – One (1) Event Ticket – Meet & Greet and Photo with Durand Jones & The Indications. Indeed, true patriotism is more than love of country—it is love of people. "Can't Do Without You" is a restless techno stunner that spends three tantalizing minutes building. The Golden Globe Award for Best Original Song was awarded for the first time in 1962 and has been awarded annually since 1965 by the Hollywood Foreign Press Association. Durand Jones & The Indications lyrics. My Mantra 2. Watch the video for How Can I Be Sure from Durand Jones & The Indications's American Love Call for free, and see the artwork, lyrics and similar artists. But to give to you and to give to. It's here, the magic you've been waiting for! Get your limited edition copy of Grace Love and the True Loves Vinyl!! Includes unlimited streaming of Grace Love and the True Loves via the free Bandcamp app, plus high-quality download in MP3, FLAC and more. Dec 20, 2018- Explore ineketangeman's board "love", followed by 119 people on Pinterest. Voice, Guitar and Piano Sheet Music Country Style 5 To 9 by Dolly Parton 8th of November by John Rich and Kenny Alphin performed by Big & Rich 99. Elvis Duran and the Morning Show. 7 Joseph Gordon-Levitt, Seth Rogen, Anna Kendrick, Bryce Dallas Howard, Anjelica Huston Jonathan Levine Comedy, Drama Inspired by a true story, 50/50 is an original story about friendship, love, survival and finding humor in unlikely places. "He'd tell me to sing like I had a shovel in my hands and I was digging on the one. Thoroughly Modern Millie is a Tony Award-winning musical with music by Jeanine Tesori, lyrics by Dick Scanlan, and a book by Richard Morris and Scanlan. Easily share your publications and get them in front of Issuu’s. ” (Hammerstein penned the iconic lyrics from his home and farm in Doylestown. Kathrin Kohlmann) Lyrics Patti Page - Cross Over The Bridge Lyrics Patti Page - With My Eyes Wide Open/I Went To Your Wedding Lyrics Patti Page - Mister And Mississippi Lyrics Patti Page - Now That I M in Love (Original Mix) Lyrics Patti Page - Winter World Of Love Lyrics Patti Page - Left Right Out Of Your Heart Lyrics Patti Page - Silent. Love all, serve all. Co is a free video search engine and online media conversion to download youtube videos, which allows you to convert and download YouTube URLs to formats like MP4, M4A, 3GP, WEBMG and 3D. Sign up today and get $5 off your first purchase. The Cambridge History of English and American Literature: An Encyclopedia in Eighteen Volumes. Swag For Life Member! Pledged support to: ♥ WFMU's Marathon 2018 ♥ WFMU's Marathon 2017 ♥ WFMU's Silent Fundraiser 2016. Long Way Home 6. 1853 (HCL) Printed for relief of the poor, according to preface. So until next time my love jones stay loving!. The Vocal Sheet Music Collection is a non-circulating, supplemental collection of over 5700 individual pieces of sheet music. True love, I knew I had it True love, was so hard to find (could've had it all) True love, if I could get it back, I'd never let it go this time (I'd never let it go) True love is an inspiration, ah True love, it was mine, all mine True love, if I could get it back, yeah If only I could get it back, I'd— True love, I'd never let it go True. "True Love," performed by Durand Jones & The Indications at Paste Studios, "Don't Go to Strangers," written by Arthur Kent and Dave Mann, with lyrics by. The group's second album has great songs, passionate performances and immaculate production. In dispensing royal justice and promulgating. All I needed was the love you gave All I needed for another day And all I ever knew (All I ever Knew) Only you. helen is a first. If this is the love that they been talkin' 'bout I don't never ever wanna be without You are the beat of my heart near or far And I'm so happy, babe Some people spend their whole lives searching for love that's true Don't need a vow or a ring to share my life with you It's you and me right or wrong Just as long as we stay happy, babe. Sign up today and get $5 off your first purchase. from all of my family lines. See more ideas about Fancy words, Frases and Love words. As a witch, she is trying to find a root to the three magical races (with the other two being daemons and vampires). In medieval Europe the lyric form can be found in Christian hymns. The Weight is the centrepiece of the album, both musically and lyrically. durand jones & the indications - true love lyrics; durand jones & the indications - smile lyrics; durand jones & the indications - too many tears lyrics; durand jones & the indications - long way home lyrics; durand jones & the indications - you and me lyrics; durand jones & the indications - listen to your heart lyrics; durand. Flying Stars Of Brooklyn NY, The - My God Has A Telephone / Live On - Vinyl 7 - 2017 - US - Original kaufen im Online Music Store von HHV - Neuheiten & Topseller auf Vinyl, CD & Tape - Versandkostenfrei bestellen ab 80€!. and he carries all his money In a diamond-studded ja. Mullican : 5816: A Girl's Best Friend, Morgan Bland - 12/11/18 : 12306: A Grandiloquent Anthem, Abigail M. In addition to Patti Page’s #1 version, All My Love was also popular in 1950 in versions by Guy Lombardo, Percy Faith, Bing Crosby, and Dennis Day. Bernie Taupin also wrote the lyrics for songs performed and recorded by Ringo Starr, Rod Stewart, Cher, Alice Cooper, Melissa Manchester, Derringer, The Motels, Starship, Heart, Animotion, John Waite, Martin Page, Peter Cetera, Courtney Love, Willie Nelson and Emmylou Harris, as well as for his own singing career, both as a solo artist and as a. Our full range of DJ equipment from all the leading equipment and software brands. At the heart of it was great music and a commitment to changing the world.
.
.